#TITLE:Give My Love;
#SUBTITLE:;
#ARTIST:Edward Chun;
#TITLETRANSLIT:Give My Love;
#SUBTITLETRANSLIT:Edward Chun;
#ARTISTTRANSLIT:;
#CREDIT:;
#BANNER:Give My Love-bn.png;
#BACKGROUND:Give My Love-bg.png;
#LYRICSPATH:;
#CDTITLE:pm4cd.png;
#MUSIC:Give My Love.mp3;
#OFFSET:0.120;
#SAMPLESTART:42.747;
#SAMPLELENGTH:20.000;
#SELECTABLE:YES;
#BPMS:0.000=90.000,97.750=180.000,99.750=90.000,100.750=180.000,102.750=90.000,103.750=180.000,105.750=90.000,106.750=180.000,108.750=90.000,109.750=180.000,111.750=90.000,112.750=180.000,114.750=90.000,115.750=180.000,117.750=90.000,118.750=180.000,120.750=90.020,152.750=180.000,216.750=90.000,264.750=180.000,328.750=90.000,329.750=180.000,331.750=90.000,332.750=180.000,334.750=90.000,335.750=180.000,337.750=90.000,338.750=180.000,340.750=90.000,341.750=180.000,343.750=90.000,344.750=180.000,346.750=90.000,347.750=180.000,349.750=90.000,350.750=180.000,352.750=90.000,353.750=180.000,355.750=90.000,356.750=180.000,358.750=90.000,359.750=180.000,361.750=90.000,362.750=180.000,364.750=90.000,365.750=180.000,367.750=90.000,368.750=180.000,370.750=90.000,371.750=180.000,373.750=90.000,374.750=180.000,376.750=45.000;
#STOPS:;
#BGCHANGES:;
// cache tags:
#FIRSTBEAT:0.750;
#LASTBEAT:394.750;
#SONGFILENAME:Songs/Music V.I.P ^_^/Give My Love/Give My Love.sm;
#HASMUSIC:1;
#HASBANNER:1;
#MUSICLENGTH:220.008;
// end cache tags

//---------------dance-single - ----------------
#NOTES:
     dance-single:
     :
     Hard:
     9:
     0.680,0.695,1.000,0.014,1.000,738.000,274.000,3.000,0.000,33.000:
0000
0000
0000
0101
0000
0010
0000
0100
0000
1000
0000
1010
0000
0100
0000
0010
,
0000
0001
0000
0101
0000
0010
0000
0100
0000
1000
0000
1010
0000
0100
0000
0010
,
0000
0001
0000
0101
0000
0010
0000
0100
0000
1000
0000
1010
0000
0100
0000
0010
,
0000
0001
0000
0101
0000
0010
0000
0100
0000
1000
0000
1010
0000
0100
0000
0010
,
0000
0001
0000
0101
0000
0000
0000
1010
0000
0000
0000
0101
0000
0010
0000
1010
,
0000
0000
0000
0101
0000
0000
0000
1010
0000
0000
0000
0101
0000
0010
0000
1010
,
0000
0000
0000
0101
0000
0000
0000
1010
0000
0000
0000
0101
0000
0010
0000
1010
,
0000
0000
0000
0101
0000
0000
0000
1010
0000
0000
0000
0101
0000
0010
0000
1010
,
0000
0000
0000
0111
0000
0001
0000
0010
0000
0001
0000
1100
0000
1100
0000
0010
,
0000
0001
0000
0110
0000
0001
0000
0010
0000
0001
0000
1100
0000
1100
0000
0010
,
0000
0001
0000
0110
0000
1000
0000
0100
0000
1000
0000
0011
0000
0011
0000
0100
,
0000
1000
0000
0110
0000
1000
0000
0100
0000
1000
0000
0011
0000
0011
0000
0100
,
0000
1000
0000
0110
0000
0001
0000
0010
0000
0001
0000
0011
0000
0011
0000
0100
,
0000
1000
0000
0110
0000
0001
0000
0010
0000
0001
0000
0011
0000
0011
0000
0100
,
0000
1000
0000
0101
0000
0000
0000
1010
0000
0000
0000
0101
0000
0000
0000
1010
,
0000
0000
0000
0110
0000
0001
0000
0010
0000
0001
0000
0011
0000
0011
0000
0100
,
0000
1000
0000
0101
0000
0010
0000
1000
0000
1000
0000
0011
0000
0010
0000
1000
,
0000
1000
0000
0101
0000
0010
0000
1000
0000
1000
0000
0011
0000
0010
0000
1000
,
0000
1000
0000
1010
0000
0100
0000
0001
0000
0001
0000
1100
0000
1000
0000
0001
,
0000
0001
0000
1010
0000
0100
0000
0001
0000
0001
0000
1100
0000
1000
0000
0001
,
0000
0001
0000
0110
0000
0010
0000
1000
0000
1000
0000
0011
0000
0010
0000
1000
,
0000
1000
0000
0110
0000
0010
0000
1000
0000
1000
0000
0011
0000
0010
0000
1000
,
0000
1000
0000
1010
0000
0100
0000
0001
0000
0001
0000
1100
0000
1000
0000
0001
,
0000
0001
0000
1010
0000
0100
0000
0001
0000
0001
0000
1100
0000
1000
0000
0001
,
0000
0001
0000
1000
0100
0010
0001
1000
0000
0100
0000
0010
0000
0001
0000
0001
,
0010
0100
1000
0001
0000
0010
0000
0100
0000
1000
0000
1000
0100
0010
0001
1000
,
0000
0100
0000
0010
0000
0001
0000
0001
0010
0100
1000
0001
0000
0010
0000
0100
,
0000
1000
0000
1000
0100
0010
0001
1000
0000
0100
0000
0010
0000
0001
0000
0001
,
0010
0100
1000
0001
0000
0010
0000
0100
0000
1000
0000
1000
0100
0010
0001
1000
,
0000
0100
0000
0010
0000
0001
0000
0001
0010
0100
1000
0001
0000
0010
0000
0100
,
0000
1000
0000
1100
0000
0001
0000
0010
0000
0001
0000
1100
0000
1100
0000
0001
,
0000
0000
0000
1100
0000
0001
0000
0010
0000
0001
0000
1100
0000
1100
0000
0001
,
0010
0100
0000
0011
0000
0100
0000
1000
0000
0100
0000
0011
0000
0011
0000
1000
,
0000
0100
0000
0011
0000
0100
0000
1000
0000
0100
0000
0011
0000
0011
0000
1000
,
0100
0010
0000
0101
0000
0010
0000
1010
0000
0100
0000
0101
0000
0010
0000
1010
,
0000
0100
0000
0101
0000
0110
0000
1010
0000
0110
0000
0101
0000
0011
0000
1010
,
0000
0110
0000
0101
0000
0010
0000
1010
0000
0100
0000
0101
0000
0010
0000
1010
,
0000
0100
0000
0101
0000
0110
0000
1010
0000
0110
0000
0101
0000
0011
0000
1010
,
0000
0110
0000
0101
0000
0010
0000
0110
0000
0000
0000
1010
0000
0000
0000
0110
,
0000
0000
0000
1011
0000
0000
0000
1100
0000
0000
0000
1011
0000
0000
0000
0110
,
0000
0000
0000
0101
0000
0010
0000
1100
0000
0000
0000
0101
0000
0000
0000
0110
,
0000
0000
0000
1101
0000
0000
0000
0110
0000
0000
0000
1011
0000
0000
0000
0110
,
0000
0000
0000
1010
0000
0100
0000
0011
0000
0000
0000
1010
0000
0000
0000
0110
,
0000
0000
0000
1101
0000
0000
0000
0011
0000
0000
0000
1101
0000
0000
0000
0011
,
0000
0000
0000
1010
0000
0100
0000
0011
0000
0000
0000
1010
0000
0000
0000
0110
,
0000
0000
0000
1101
0000
0000
0000
0011
0000
0000
0000
1101
0000
0000
0000
0011
,
0000
0000
0000
0101
0000
0010
0000
0110
0000
0000
0000
1010
0000
0000
0000
0110
,
0000
0000
0000
1011
0000
0000
0000
1100
0000
0000
0000
1011
0000
0000
0000
0110
,
0000
0000
0000
0101
0000
0010
0000
1100
0000
0000
0000
0101
0000
0000
0000
0110
,
0000
0000
0000
1101
0000
0000
0000
0110
0000
0000
0000
1011
0000
0000
0000
0110
,
0000
0000
0000
1010
0000
0100
0000
0011
0000
0000
0000
1010
0000
0000
0000
0110
,
0000
0000
0000
1101
0000
0000
0000
0011
0000
0000
0000
1101
0000
0000
0000
0011
,
0000
0000
0000
1010
0000
0100
0000
0011
0000
0000
0000
1010
0000
0000
0000
0110
,
0000
0000
0000
1101
0000
0000
0000
0011
0000
0000
0000
1101
0000
0000
0000
0011
,
0000
0000
0000
0101
0000
1000
0100
0011
0000
1000
0000
0011
0000
0011
0000
0100
,
0000
1010
0000
0101
0000
0010
0000
0100
0000
1000
0000
0110
0000
1001
0000
0010
,
0000
1100
0000
1100
0000
0001
0000
0010
0000
0100
0000
0101
0000
1010
0000
0100
,
0000
0000
0000
0000
1100
0000
0000
0000
0000
0000
0000
0000
1100
0000
0000
0000
0000
0000
0000
0000
0010
0000
0000
0000
0000
0000
0000
0000
0001
0000
0000
0000
0000
0000
0000
0000
0010
0000
0000
0000
0000
0000
0000
0000
0101
0000
0000
0000
0000
0000
0000
0000
0101
0000
0000
0000
0000
0000
0000
0000
0010
0001
0010
0000
,
0000
0000
0000
1100
0000
0001
0010
0100
0010
0100
1000
0101
0000
0010
0000
1100
,
0000
0001
0010
0100
0010
0001
0010
0100
1000
0100
0010
0101
0000
0001
0000
0010
,
0100
1000
0100
0101
0000
0010
0000
1100
0000
0001
0010
1100
0000
0010
0000
0101
,
0000
0001
0000
1001
0000
0100
0000
0011
0000
1000
0000
0101
0000
0010
0001
0010
,
0100
0010
0100
1010
0100
1000
0100
0011
0000
0100
0000
1010
0000
1010
0000
0010
,
0000
0011
0000
0011
0000
0100
0000
1000
0000
0100
0000
1010
0000
0101
0000
0001
,
0000
0110
0000
0110
0000
0100
0000
0011
0100
1000
0100
0010
0001
0010
0100
1000
,
0000
0001
0010
0100
0010
0100
0100
1000
1000
0100
0100
0010
0010
0001
0001
0010
,
0010
0100
0100
1000
0000
1000
0000
0101
0000
0000
0000
0110
0000
0000
0000
1100
,
0000
0000
0000
0111
0000
0000
0000
1001
0000
0000
0000
1110
0000
0000
0000
0101
,
0000
0000
0000
1010
0000
0100
0000
1001
0000
0000
0000
0011
0000
0000
0000
1010
,
0000
0000
0000
0111
0000
0000
0000
0011
0000
0000
0000
1110
0000
0000
0000
0101
,
0000
0000
0000
1001
0000
0100
0000
0101
0000
0000
0000
0110
0000
0000
0000
0101
,
0000
0000
0000
0111
0000
0000
0000
1001
0000
0000
0000
1101
0000
0000
0000
1010
,
0000
0000
0000
0101
0000
0100
0000
1001
0000
0000
0000
0011
0000
0000
0000
0110
,
0000
0000
0000
1011
0000
0000
0000
0101
0000
0000
0000
1110
0000
0000
0000
0110
,
0000
0000
0000
0101
0000
0010
0000
1001
0000
0000
0000
1100
0000
0000
0000
0011
,
0000
0000
0000
1110
0000
0000
0000
1001
0000
0000
0000
0111
0000
0000
0000
1010
,
0000
0000
0000
1100
0000
0100
0000
0101
0000
0000
0000
0011
0000
0000
0000
0110
,
0000
0000
0000
1011
0000
0000
0000
1010
0000
0000
0000
1101
0000
0000
0000
0011
,
0000
0000
0000
1100
0000
0010
0000
0101
0000
0000
0000
0011
0000
0000
0000
1001
,
0000
0000
0000
1110
0000
0000
0000
0101
0000
0000
0000
1011
0000
0000
0000
0101
,
0000
0000
0000
1010
0000
0100
0000
0110
0000
0000
0000
0011
0000
0000
0000
1100
,
0000
0000
0000
0111
0000
0000
0000
0101
0000
0000
0000
1011
0000
0000
0000
0011
,
0000
0000
0000
0001
0010
0100
1000
0001
0000
0010
0000
0100
0000
1000
0000
1000
,
0100
0010
0001
1000
0000
0100
0000
0010
0000
0001
0000
0001
0010
0100
1000
0001
,
0000
0010
0000
0100
0000
1000
0000
1000
0100
0010
0001
1000
0000
0100
0000
0010
,
0000
0001
0000
0001
0010
0100
1000
0001
0000
0010
0000
0100
0000
1000
0000
1000
,
0100
0010
0001
1000
0000
0100
0000
0010
0000
0001
0000
0001
0010
0100
1000
0001
,
0000
0010
0000
0100
0000
1000
0000
1000
0100
0010
0001
1000
0000
0100
0000
0010
,
0000
0001
0000
0001
0010
0100
1000
0001
0000
0010
0000
0100
0000
1000
0000
1000
,
0100
0010
0001
1000
0000
0100
0000
0010
0000
0001
0000
0001
0010
0100
1000
0001
,
0000
0010
0000
0100
0000
1000
0000
1000
0100
0010
0001
1000
0000
0100
0000
0010
,
0000
0001
0000
1000
0100
0010
0001
1000
0000
0100
0000
0010
0000
0001
0000
0001
,
0010
0100
1000
0001
0000
0010
0000
0100
0000
1000
0000
1000
0100
0010
0001
1000
,
0000
0100
0000
0010
0000
0001
0000
0001
0010
0100
1000
0001
0000
0010
0000
0100
,
0000
1000
0000
0002
0000
0000
0000
0000
0000
0000
0000
0000
0000
0003
0000
0000
,
0000
0000
0000
0101
0000
0010
0000
0100
0000
1000
0000
1010
0000
0100
0000
0010
,
0000
0001
0000
0101
0000
0010
0000
0100
0000
1000
0000
1010
0000
0100
0000
0010
,
0000
0001
0000
0011
0010
0100
1000
0100
0010
0001
1100
0100
0010
0001
0010
0100
,
1000
0100
0011
2200
0000
0000
0000
0000
0000
0000
0000
3300
0000
0000
0000
0000
;
